#TITLE:Classic 4;
#SUBTITLE:;
#ARTIST:Waldeus von Dovjak;
#TITLETRANSLIT:;
#SUBTITLETRANSLIT:;
#ARTISTTRANSLIT:;
#CREDIT:;
#BANNER:Classic 4.png;
#BACKGROUND:Classic 4-bg.png;
#LYRICSPATH:;
#CDTITLE:;
#MUSIC:classic4(concertare).mp3;
#OFFSET:-0.380;
#SAMPLESTART:35.339;
#SAMPLELENGTH:12.000;
#SELECTABLE:YES;
#BPMS:0.000=179.250;
#STOPS:;
#BGCHANGES:;
// cache tags:
#FIRSTBEAT:0.000;
#LASTBEAT:265.000;
#SONGFILENAME:Songs/Music V.I.P ^_^/Classic 4 [Reach]/Classic 4.sm;
#HASMUSIC:1;
#HASBANNER:1;
#MUSICLENGTH:92.558;
// end cache tags

//---------------dance-single - ----------------
#NOTES:
     dance-single:
     :
     Challenge:
     11:
     1.000,1.000,0.972,0.086,1.000,825.000,90.000,8.000,0.000,0.000:  // measure 1
1000
0100
0010
0100
1000
0010
0100
0010
1000
0001
0010
0100
0010
0001
0100
0000
,  // measure 2
0001
0010
0100
0010
0001
0100
0010
0100
0001
1000
0100
0010
0100
1000
0010
0000
,  // measure 3
0100
0010
0100
0010
1000
0010
0100
0010
1000
0010
1000
0100
0010
0001
0010
0100
,  // measure 4
1000
0100
0010
0001
0010
0100
0010
0001
0010
0100
1000
0100
0010
0100
1000
0000
,  // measure 5
0001
0010
0001
0010
0001
0100
0001
0100
0001
1000
0001
1000
0010
1000
0010
1000
,  // measure 6
0010
1000
0100
1000
0100
1000
0010
1000
0010
1000
0001
1000
0001
1000
0010
0000
,  // measure 7
1000
0100
0010
0001
0010
0001
1000
0100
0010
0001
0010
0001
0010
0100
0010
0100
,  // measure 8
1000
0100
1000
0100
0010
0100
0010
0001
0010
0001
0010
0100
0010
0100
1000
0000
,  // measure 9
1000
0100
1000
0100
1000
0100
0010
0001
1000
0100
0010
0001
1000
0010
0100
0001
,  // measure 10
1100
0000
0001
0100
0010
1000
0001
0010
0100
1000
0001
0100
0010
1000
0001
0000
,  // measure 11
1001
0000
0100
0010
0100
0001
0100
0010
0100
0001
0010
0100
1000
0100
0010
0001
,  // measure 12
0010
0100
0010
0001
0100
0010
0100
0001
1000
0100
0010
0100
1000
0010
0100
0010
,  // measure 13
1001
0000
0000
0000
0100
1000
0010
0001
0100
1000
0010
0001
1000
0010
0100
0001
,  // measure 14
0010
0100
1000
0100
0010
0001
1000
0010
0100
0001
1000
0100
0010
0100
1000
0001
,  // measure 15
0010
0100
0010
0001
1000
0100
0010
0100
1000
0010
0100
0010
0100
1000
0001
0010
,  // measure 16
0100
0010
0001
0010
0100
0010
0100
0010
1001
0000
0010
0000
1001
0000
0000
0000
,  // measure 17
0000
0000
0000
0000
,  // measure 18
1000
0010
0100
0001
1000
0100
0010
0001
1000
0100
1000
0100
1000
0010
1000
0010
,  // measure 19
0100
0010
0100
0010
1000
0001
1000
0001
0100
0010
0100
0010
1001
0000
0110
0000
,  // measure 20
1000
0100
0010
0001
1000
0100
0010
0001
0010
0100
0010
0100
1000
0100
1000
0100
,  // measure 21
1000
0010
0100
0001
1000
0010
1000
0010
1000
0001
1000
0001
1100
0000
1001
0000
,  // measure 22
0100
0010
0100
0001
0100
0010
0100
0001
1000
0100
0010
0001
0100
0010
1000
0001
,  // measure 23
1000
0100
0010
0001
1000
0001
1000
0001
0010
0100
1000
0100
1001
0000
0110
0000
,  // measure 24
0100
0010
1000
0010
0100
0010
1000
0100
0010
0001
0010
0100
1001
0000
0110
0000
,  // measure 25
1000
0100
1000
0010
1000
0001
0010
0001
0100
0001
1000
0100
1001
0000
0110
0000
,  // measure 26
1001
0000
1000
0100
1000
0010
1000
0001
1000
0010
1000
0100
1000
0001
0010
0001
,  // measure 27
0100
0001
1000
0010
0100
0001
1000
0001
0100
0010
1000
0100
0010
0001
0010
0100
,  // measure 28
1001
0000
0100
0010
1000
0001
0010
0100
1000
0010
0100
0001
0010
0001
1000
0100
,  // measure 29
1000
0010
0100
0010
1000
0100
0010
0100
1000
0010
0100
0010
1000
0001
0010
0100
,  // measure 30
1001
0110
1001
0110
1001
0110
1001
0110
,  // measure 31
2002
0000
3003
0000
0220
0000
0000
0000
0330
0000
0000
0000
1000
0100
1000
0100
,  // measure 32
1000
0000
0000
0000
0001
0010
0001
0010
0001
0000
0000
0000
0100
0010
1000
0001
,  // measure 33
0100
0010
1000
0001
0100
0010
0001
0010
0100
0000
0000
0000
0100
0000
1000
0001
,  // measure 34
1100
0000
0001
0000
0100
0000
0010
1000
0011
0000
0100
0000
0010
0000
0100
0001
,  // measure 35
1010
0000
0101
0000
0110
0000
1001
0000
0021
0000
0030
0000
1000
0001
1000
0001
,  // measure 36
1000
0000
0000
0000
0001
1000
0001
1000
0001
0000
0000
0000
0100
1000
0100
1000
,  // measure 37
0001
0010
0100
1000
0001
0100
0010
1000
0001
0000
0100
0000
1000
0000
0001
1000
,  // measure 38
0110
0011
1001
0110
1100
0110
0011
0110
,  // measure 39
2001
0000
0000
0000
0000
0000
0000
0000
0000
0000
0000
0000
3001
0000
0000
0010
0000
0000
0100
0000
0000
1000
0000
0000
0001
0000
0000
0000
0010
0000
0000
0000
0100
0000
0000
0000
1000
0000
0000
0000
0100
0000
0000
0000
0001
0000
0000
0000
,  // measure 40
0010
0100
1000
0010
0100
0001
0010
0100
1000
0100
0010
0001
,  // measure 41
0010
0100
0001
1000
0010
0100
0011
0100
1000
0010
0100
0010
,  // measure 42
1001
0010
0100
0010
0100
0010
1100
0010
0100
0001
0100
0010
,  // measure 43
1001
0000
0000
0000
0010
0000
0000
0000
0100
0000
0000
0000
0010
0000
0000
0000
0100
0000
0000
0000
0010
0000
0000
0000
0001
0000
0000
1000
0000
0000
0001
0000
0000
1000
0000
0000
0010
0000
0000
0100
0000
0000
0010
0000
0000
0100
0000
0000
,  // measure 44
0001
0010
0001
0010
0001
1000
0001
1000
0100
1000
0100
1000
0010
1000
0010
1000
,  // measure 45
0001
1000
0010
0100
0001
0010
0100
0000
0000
0000
0000
0000
0000
0000
0000
0000
,  // measure 46
0110
1100
0011
1100
0110
1100
0110
1001
,  // measure 47
1100
0000
0001
0010
0100
1000
0001
0100
0010
1000
0100
0010
1001
0000
0010
0100
,  // measure 48
0010
0100
0001
0010
0100
1000
0010
0100
1001
0000
0000
0000
0100
1000
0100
1000
,  // measure 49
0011
0110
0011
1001
0011
0110
1001
0110
,  // measure 50
1100
0000
0010
0001
0010
0100
0010
0001
0100
0010
0100
0010
1001
0000
0100
1000
,  // measure 51
0010
1000
0001
1000
0010
0100
0010
0100
1001
0000
0000
0000
0000
0000
0000
0000
,  // measure 52
0100
1000
0001
0010
0100
1000
0001
0100
0010
1000
0010
0100
0001
0010
0100
0010
,  // measure 53
0001
0100
0010
0100
0010
1000
0100
0010
0100
1000
0100
1000
0100
1000
0100
1000
,  // measure 54
0100
0010
0001
0010
0100
1000
0100
1000
0100
0010
0100
0010
0001
0010
0001
1000
,  // measure 55
0001
1000
0001
0010
0100
1000
0100
0010
0001
0010
0100
1000
0100
0000
0000
0000
,  // measure 56
1000
0100
0010
0100
1000
0010
0100
0010
0100
0001
1000
0100
0010
0100
1000
0100
,  // measure 57
1000
0001
1000
0001
1000
0010
1000
0010
1000
0100
0010
0001
1100
0000
1001
0000
,  // measure 58
0001
0010
0100
1000
0010
0100
0001
1000
0100
0010
0100
1000
0100
0010
0100
1000
,  // measure 59
0100
0010
0001
0010
0100
1000
0100
0010
0001
0010
0100
0010
1001
0000
0000
0100
,  // measure 60
0000
0000
0000
0100
1001
0000
0000
0000
0000
0000
0000
1000
0101
0000
0000
0000
,  // measure 61
0000
0000
0000
0000
0001
1000
0001
0100
0001
0010
0001
0010
0100
0000
0000
0000
,  // measure 62
0000
0000
1001
1000
1010
1000
1100
0000
,  // measure 63
0000
1001
0110
0000
0000
0110
1001
0000
,  // measure 64
0000
1001
0110
0000
0000
1001
0110
1001
,  // measure 65
0110
0000
1001
0000
1000
0100
0010
0001
1000
0010
0100
0001
0100
0010
0100
0001
,  // measure 66
0100
0010
0100
0001
0010
0000
0000
0000
0000
0000
0000
0000
2002
0000
0000
0000
,  // measure 67
3003
0110
0000
0000
;
